суббота, 2 февраля 2013 г.

русский духовный хоровой концерт 18 века

"Антология Русской духовной музыки". Лучшие записи Русской духовной музыки из коллекции "Мелодии". (8CD). Страна: Россия. ФГУП "Фирма Мелодия". Жанр: Церковная музыка и церковные хоры (lossless). Год выпуска: 2009 Формат: APE (image + .cue) Битрейт аудио: lossless Трэклист: CD1: Древнерусские песнопения. 01:11:24. CD2: Мастера партесного стиля. 01:13:29. CD3: Хоровой концерт XVIII-XIX веков. 01:10:47. CD4: Московские композиторы начала XX века. 01:07:04. CD5: Ленинградские композиторы начала XX века. 01:06:51. CD6: Петр Чайковский. Духовные хоровые сочинения. 01:13:45. CD7: Сергей Рахманинов. Духовные хоровые сочинения. 01:17:23. CD8: Русская духовная музыка XX века. 01:12:07. Подробное содержание+Обложки EAC log cd1. Exact Audio Copy V1.0 beta 2 from 29. April 2011 Отчёт EAC об извлечении, выполненном 21. сентября 2011, 20:13 - / Русская духовная музыка 20 века Дисковод: ASUS DRW-2014L1T Adapter: 2 ID: 1 Режим чтения : Достоверность Использование точного потока : Да Отключение кэша аудио : Да Использование указателей C2 : Нет Коррекция смещения при чтении : 6 Способность читать области Lead-in и Lead-out : Нет Заполнение пропущенных сэмплов тишиной : Да Удаление блоков с тишиной в начале и конце : Нет При вычислениях CRC использовались нулевые сэмплы : Да Интерфейс : Встроенный Win32-интерфейс для Win NT/2000 Выходной формат : Внутренние WAV-операции Формат сэмплов : 44.100 Гц; 16 бит; стерео TOC извлечённого CD Трек | Старт | Длительность | Начальный сектор | Конечный сектор --------------------------------------------------------------------- 1 | 0:00.00 | 3:35.34 | 0 | 16158 2 | 3:35.34 | 3:44.46 | 16159 | 33004 3 | 7:20.05 | 6:31.28 | 33005 | 62357 4 | 13:51.33 | 2:49.50 | 62358 | 75082 5 | 16:41.08 | 9:53.59 | 75083 | 119616 6 | 26:34.67 | 13:12.24 | 119617 | 179040 7 | 39:47.16 | 5:10.05 | 179041 | 202295 8 | 44:57.21 | 17:08.08 | 202296

(Церковная музыка и церковные хоры (lossless).) "Антология Русской духовной музыки". Лучшие записи Русской духовной музыки из коллекции "Мелодии". (8CD). - 2009, APE (image + .cue), lossless :: Православный торрент-трекер

Комментариев нет:

Отправить комментарий